#TITLE:Platinum;
#SUBTITLE:- Card Captor Sakura 3rd Opening;
#ARTIST:坂本真綾;
#TITLETRANSLIT:;
#SUBTITLETRANSLIT:;
#ARTISTTRANSLIT:Maaya Sakamoto;
#CREDIT:Lisek;
#BANNER:bn.jpg;
#BACKGROUND:bg.jpg;
#LYRICSPATH:Platinum.lrc;
#CDTITLE:cdtitle.gif;
#MUSIC:Card Captor Sakura - Platinum.mp3;
#OFFSET:0.450;
#SAMPLESTART:47.791;
#SAMPLELENGTH:11.080;
#SELECTABLE:YES;
#BPMS:0.000=164.100;
#STOPS:;
#BGCHANGES:8.000=platinum.avi=1.000=0=0=1,
99999=-nosongbg-=1.000=0=0=0 // don't automatically add -songbackground-
;
// cache tags:
#FIRSTBEAT:7.000;
#LASTBEAT:225.000;
#SONGFILENAME:songs/Otaku's Dream 3rd Anime Mix/[Lisek] Platinum - Card Captor Sakura 3rd OP/Platinum.sm;
#HASMUSIC:1;
#HASBANNER:1;
#MUSICLENGTH:82.110;
// end cache tags

//---------------dance-single - ----------------
#NOTES:
     dance-single:
     :
     Hard:
     7:
     0.364,0.514,0.219,0.304,0.000,166.000,18.000,25.000,0.000,0.000:
0000
0000
0000
0000
,
0000
0000
0000
2002
,
0000
0000
0000
0000
0000
3003
0000
0000
,
1000
0001
1000
0020
,
0000
0000
0030
0000
,
1000
0010
1000
2000
,
0000
0000
3001
0001
,
0002
0000
0000
0000
0003
1000
0001
2000
,
0000
0000
3100
0100
,
0200
0000
0000
0000
0300
0010
0100
0020
,
0000
0000
0000
0030
,
0000
0000
0001
0000
0000
1000
0000
0100
,
0000
0000
0000
0010
0000
0001
0000
0000
,
0010
0100
0010
0000
0001
0000
1000
0000
,
0001
1000
0001
1000
,
0100
1000
0010
1000
,
0100
0000
1000
0100
0000
0100
0000
0000
,
0200
0000
0000
0310
0000
0000
0001
0000
,
1000
0001
1000
0001
,
1000
0000
1000
0100
,
1000
0000
0000
0100
1000
0000
0100
0000
,
0000
0000
0000
0100
0010
0100
0010
0200
,
0000
0000
0000
0300
,
0000
0000
0000
0000
1000
0000
0001
1000
,
0000
0001
1000
0001
,
1000
0000
0000
0001
1000
0010
0100
0001
,
2000
0000
3000
0001
0000
0001
0000
0001
,
0000
0000
1000
0001
,
0100
0000
0100
0010
0000
0100
0000
0001
,
0000
0000
1000
0100
,
1000
0010
0100
0010
,
2000
0000
0000
0000
0000
3000
0001
0020
,
0000
0000
0031
1001
,
1000
0001
1000
0001
0000
2000
0000
0000
,
0000
0000
3000
0000
,
0001
1000
0001
1000
0000
0002
0000
0000
,
0000
0000
0003
0000
,
1000
0000
1001
0000
0001
0000
0000
0100
,
0010
0100
0001
1000
0000
0000
0000
0000
,
1000
0001
1000
0010
1000
0000
0100
0000
,
1000
0010
0100
0001
,
1001
0101
0110
0102
,
0000
0000
0003
0000
,
1100
1010
0110
0012
,
0000
0000
1003
0001
,
1000
0000
0100
0000
0000
0000
1000
0200
,
0000
0300
0010
0200
0000
0300
1000
0002
,
0000
0003
0100
0020
0000
1030
0000
0100
,
0000
0000
0000
0000
1000
0001
2000
0000
,
0000
0000
0000
0000
,
3000
0000
0000
0000
0001
1000
0002
0000
,
0000
0000
0000
0000
0003
0000
0000
1001
,
0000
0110
0000
1100
0000
0011
0000
1001
,
0000
0101
0101
0000
0000
0001
1000
0002
,
0000
0000
0000
0000
,
1003
0000
0000
0000
0000
0100
0010
0200
,
0000
0300
0000
0000
;

//---------------dance-single - ----------------
#NOTES:
     dance-single:
     :
     Beginner:
     2:
     0.108,0.171,0.000,0.244,0.000,42.000,0.000,20.000,0.000,0.000:
0000
0000
0000
0000
,
0000
0000
0000
0000
,
0000
0000
0000
0000
,
1000
0000
0000
0000
,
0000
0000
0000
0000
,
0001
0000
0000
0000
,
0000
0000
0000
0000
,
2000
0000
0000
0000
,
0000
0000
3000
0000
,
0002
0000
0000
0000
,
0000
0000
0000
0003
,
0000
0200
0000
0000
,
0000
0000
0000
0000
,
0310
0000
0000
0000
,
0000
0000
0000
0000
,
2000
0000
0000
0000
,
3002
0000
0000
0000
,
2003
0000
3010
0000
,
0000
0000
0000
0000
,
0000
0000
2000
0000
,
0000
0000
3001
0000
,
0000
0000
1000
0000
,
2000
0000
0000
3000
,
0000
0000
0020
0000
,
0000
0000
0000
0000
,
0130
0000
0000
0000
,
0002
0000
0000
0000
,
0003
0000
0000
0000
,
2000
0000
0000
0000
,
3000
0000
0000
0000
,
0020
0000
0000
0000
,
0230
0000
0000
0000
,
0000
0000
0300
0000
,
0002
0000
0000
0000
,
0000
0000
0003
0000
,
2000
0000
0000
0000
,
0000
0000
0000
3000
,
0001
0000
0000
0000
,
0100
0000
0000
0000
,
0100
0000
0000
0000
,
0010
0000
0000
0000
,
0020
0000
0000
0000
,
0000
0000
0030
0000
,
2000
0000
0000
0000
,
0000
0000
0000
3000
,
0001
0000
0000
0001
,
0000
1000
0000
0001
,
0000
1000
0000
0000
,
0001
0000
0000
0002
,
0000
0000
0000
0000
,
0003
0000
2000
0000
,
0000
0000
0000
3000
,
0001
0000
1000
0000
,
0001
2000
0000
0000
,
0000
0000
0000
0000
,
0100
0000
0000
0000
,
3001
0000
0000
0000
;

//---------------dance-single - ----------------
#NOTES:
     dance-single:
     :
     Easy:
     3:
     0.183,0.307,0.037,0.292,0.000,78.000,3.000,24.000,0.000,0.000:
0000
0000
0000
0000
,
0000
0000
0000
2000
,
0000
0000
0000
0000
,
3001
0000
0010
0002
,
0000
0000
0000
0000
,
1003
0000
0001
2000
,
0000
0000
0000
0000
,
3002
0000
0000
2003
,
3002
0000
0000
2003
,
3002
0000
0000
2003
,
3002
0000
0000
0003
,
1000
0000
1000
0000
,
0001
0000
0001
0000
,
1000
0000
0000
0000
,
0000
0000
0000
0000
,
0010
0000
0010
0000
,
1000
0000
1000
0000
,
0002
0000
1003
0000
,
0000
0000
0000
0000
,
0000
0000
0010
0000
,
0010
0000
0200
0000
,
0300
0000
0001
0000
,
2000
0000
0000
3000
,
0000
0000
0010
0000
,
0010
0000
1000
0000
,
1000
0000
0001
0000
,
2000
0000
0000
0000
,
3001
0000
0010
0000
,
0100
0000
0010
0000
,
0010
0000
0001
0000
,
1000
0000
0001
0000
,
0002
0000
0000
0000
,
2003
0000
0000
0000
,
3001
0000
0020
0000
,
0000
0000
0030
0000
,
0001
0000
2000
0000
,
0000
0000
3000
0000
,
0010
0000
0100
0000
,
0010
0000
1000
0000
,
0001
0000
0010
0000
,
0100
0000
1000
0000
,
0001
0000
0002
0000
,
0000
0000
0003
0000
,
1000
0000
2000
0000
,
0000
0000
3001
0000
,
0010
0000
0000
0000
,
0001
0000
1000
0000
,
0001
0000
1000
0000
,
0001
0000
2000
0000
,
0000
0000
0000
0000
,
3000
0000
0002
0000
,
0000
0000
0003
0000
,
1001
0000
1001
0000
,
1001
0002
0000
0000
,
1003
0000
0000
0000
,
2000
0000
0000
0000
,
3001
0000
0000
0000
;

//---------------dance-single - Copied from----------------
#NOTES:
     dance-single:
     Copied from:
     Medium:
     4:
     0.249,0.308,0.000,0.329,0.000,116.000,0.000,27.000,0.000,0.000:
0000
0000
0000
0000
,
0000
0000
0000
0020
,
0000
0000
0000
0000
0000
0030
0000
0000
,
1000
0000
1000
0002
,
0000
0000
0003
0000
,
0001
0000
0001
2000
,
0000
0000
3001
0001
,
0002
0000
0003
2000
,
0000
0000
3001
0001
,
0200
0000
0000
0320
,
0000
0000
0000
0030
,
0000
0000
1000
0000
0000
1000
0000
1000
,
0000
0000
0000
0010
0000
0000
0000
0000
,
0010
0000
0000
0000
,
0000
0000
0000
0100
,
0000
0001
0000
1000
,
0100
1000
0100
0000
,
0200
0000
0000
0310
0000
0000
0000
0000
,
0000
0000
0000
0000
,
0000
0000
0001
0000
,
0001
0000
0000
0100
0010
0000
0100
0000
,
0000
0000
0000
0000
0100
0000
0010
0200
,
0000
0000
0000
0300
,
0000
0000
0000
0000
0001
0000
0001
1000
,
0000
0001
1000
0001
,
1000
0000
0000
0000
1000
0010
0100
0000
,
0002
0000
0003
1000
0000
1000
0000
1000
,
0000
0000
2000
0000
,
0000
0000
3000
0010
0000
0010
0000
0010
,
0000
0000
1000
0100
,
1000
0000
0000
0000
,
0002
0000
0000
0000
0000
0003
0001
0020
,
0000
0000
0031
0001
,
1000
0000
0001
1000
0000
2000
0000
0000
,
0000
0000
3000
0000
,
0001
0000
1000
0001
0000
0002
0000
0000
,
0000
0000
0003
0000
,
1000
0010
0100
0000
,
0100
0010
1000
0000
,
1000
0001
1000
0100
,
1000
0010
0100
0001
,
2000
0000
0000
3002
,
0000
0000
0000
0003
,
2000
0000
0000
3002
,
0000
0000
1003
0001
,
1000
0000
0100
0000
0000
0000
1000
0200
,
0000
0300
0000
0200
0000
0300
1000
0002
,
0000
0003
0020
0000
0000
0031
0000
0001
,
0000
0000
1000
2000
,
0000
0000
0000
0000
,
3000
0000
0001
0002
,
0000
0000
0000
0000
0003
0000
0000
1000
,
0000
0001
0000
1000
0000
0001
0000
1000
,
0000
0001
1000
0000
0000
0001
0000
0002
,
0000
0000
0000
0000
,
1003
0000
0000
0000
0000
0100
0000
0200
,
0000
0300
0000
0000
;
